» » Неприкаянные

Неприкаянные cкачать торрент

Оригинальное название: The Misfits
Производство: США
Режиссер: Джон Хьюстон
В ролях: Кларк Гейбл, Мэрилин Монро, Монтгомери Клифт, Тельма Риттер, Илай Уоллак, Джеймс Бартон, Кевин МакКарти, Эстель Уинвуд, Пегги Бартон, Рекс Белл
Жанр: Драма
Мировая премьера: 1 января 1970
Возраст: 12+
Продолжительность: 124 мин. / 02:04
Рейтинг "Кинопоиска":

Скачать Неприкаянные через торрент

Сиды Качество Перевод Размер Видео Аудио
Скачать Загрузка... WEB-DL Профессиональный многоголосый, профессиональный двухголосый, любительский одноголосый 3,94 Гб MPEG-4 AVC, 3248 Кбит/с, 960x576 Аудио №1: Русский (AC3, 2 ch, 192 Кбит/с) - Профессиональный многоголосый (DVD Магия)Аудио №2: Русский (AC3, 2 ch, 192 Кбит/с) - Профессиональный двухлосый (НТВ+)Аудио №3: Русский (AC3, 2 ch, 192 Кбит/с) - Профессиональный многоголосый (Светла) Аудио №4: Русский (AC3, 2 ch, 192 Кбит/с) - Любительский одноголосыйАудио №5: Английский (AC3, 2 ch, 192 Кбит/с) MediaInfoОбщееУникальный идентификатор : 184590838586301591452091213015218341289 (0x8ADEE7005CF601EB82C83EEC67EB45A9)Полное имя : D:6Neprikajannye.1961.x264.BDRip.(AVC).ExKinoRay.mkvФормат : MatroskaРазмер файла : 3,67 ГбайтПродолжительность : 2 ч. 4 м.Общий поток : 4210 Кбит/секНазвание фильма : Neprikajannye.1961.x264.BDRip.(AVC).ExKinoRayДата кодирования : UTC 2014-07-26 13:24:03Программа кодирования : mkvmerge v4.0.0 ('The Stars were mine') сборка от Jun 6 2010 16:18:42Библиотека кодирования : libebml v1.0.0 + libmatroska v1.0.0 ВидеоИдентификатор : 1Формат : AVCФормат/Информация : Advanced Video CodecПрофиль формата : High@L4.1Параметр CABAC формата : ДаПараметр ReFrames формата : 8 кадровИдентификатор кодека : V_MPEG4/ISO/AVCПродолжительность : 2 ч. 4 м.Битрейт : 3248 Кбит/секШирина : 960 пикс.Высота : 576 пикс.Соотношение сторон : 1,667Частота кадров : 23,976 кадр/секЦветовое пространство : YUVПодвыборка цветности : 4:2:0Битовая глубина : 8 битТип развёртки : ПрогрессивнаяБит/(Пиксели*Кадры) : 0.245Размер потока : 2,76 Гбайт (75%)Заголовок : Rip by EnigmaБиблиотека кодирования : x264 core 125 r2208 d9d2288Настройки программы : cabac=1 / ref=8 / deblock=1:-2:-2 / analyse=0x3:0x133 / me=umh / subme=11 / psy=1 / psy_rd=1.00:0.00 / mixed_ref=1 / me_range=48 / chroma_me=1 / trellis=2 / 8x8dct=1 / cqm=0 / deadzone=21,11 / fast_pskip=0 / chroma_qp_offset=-2 / threads=3 / lookahead_threads=1 / sliced_threads=0 / nr=0 / decimate=0 / interlaced=0 / bluray_compat=0 / constrained_intra=0 / bframes=8 / b_pyramid=2 / b_adapt=2 / b_bias=0 / direct=3 / weightb=1 / open_gop=0 / weightp=2 / keyint=240 / keyint_min=23 / scenecut=40 / intra_refresh=0 / rc=2pass / mbtree=0 / bitrate=3248 / ratetol=1.0 / qcomp=0.60 / qpmin=10 / qpmax=51 / qpstep=4 / cplxblur=20.0 / qblur=0.5 / ip_ratio=1.40 / pb_ratio=1.30 / aq=1:1.00Язык : English Аудио #1Идентификатор : 2Формат : AC-3Формат/Информация : Audio Coding 3Расширение режима : CM (complete main)Идентификатор кодека : A_AC3Продолжительность : 2 ч. 4 м.Вид битрейта : ПостоянныйБитрейт : 192 Кбит/секКаналы : 2 каналаРасположение каналов : Front: L RЧастота : 48,0 КГцБитовая глубина : 16 битМетод сжатия : С потерямиРазмер потока : 172 Мбайт (5%)Заголовок : Профессиональный многоголосый (DVD Магия)Язык : Russian Аудио #2Идентификатор : 3Формат : AC-3Формат/Информация : Audio Coding 3Расширение режима : CM (complete main)Идентификатор кодека : A_AC3Продолжительность : 2 ч. 4 м.Вид битрейта : ПостоянныйБитрейт : 192 Кбит/секКаналы : 2 каналаРасположение каналов : Front: L RЧастота : 48,0 КГцБитовая глубина : 16 битМетод сжатия : С потерямиРазмер потока : 172 Мбайт (5%)Заголовок : Профессиональный двухлосый (НТВ+)Язык : Russian Аудио #3Идентификатор : 4Формат : AC-3Формат/Информация : Audio Coding 3Расширение режима : CM (complete main)Идентификатор кодека : A_AC3Продолжительность : 2 ч. 4 м.Вид битрейта : ПостоянныйБитрейт : 192 Кбит/секКаналы : 2 каналаРасположение каналов : Front: L RЧастота : 48,0 КГцБитовая глубина : 16 битМетод сжатия : С потерямиРазмер потока : 172 Мбайт (5%)Заголовок : Профессиональный многоголосый (Светла)Язык : Russian Аудио #4Идентификатор : 5Формат : AC-3Формат/Информация : Audio Coding 3Расширение режима : CM (complete main)Идентификатор кодека : A_AC3Продолжительность : 2 ч. 4 м.Вид битрейта : ПостоянныйБитрейт : 192 Кбит/секКаналы : 2 каналаРасположение каналов : Front: L RЧастота : 48,0 КГцБитовая глубина : 16 битМетод сжатия : С потерямиРазмер потока : 172 Мбайт (5%)Заголовок : Любительский одноголосыйЯзык : Russian Аудио #5Идентификатор : 6Формат : AC-3Формат/Информация : Audio Coding 3Расширение режима : CM (complete main)Идентификатор кодека : A_AC3Продолжительность : 2 ч. 4 м.Вид битрейта : ПостоянныйБитрейт : 192 Кбит/секКаналы : 2 каналаРасположение каналов : Front: L RЧастота : 48,0 КГцБитовая глубина : 16 битМетод сжатия : С потерямиРазмер потока : 172 Мбайт (5%)Заголовок : АнглийскийЯзык : English Меню00:00:00.000 : en:Chapter 0100:10:46.561 : en:Chapter 0200:16:33.659 : en:Chapter 0300:24:18.456 : en:Chapter 0400:29:58.505 : en:Chapter 0500:39:49.844 : en:Chapter 0600:46:25.407 : en:Chapter 0700:51:22.536 : en:Chapter 0800:57:29.112 : en:Chapter 0901:10:49.411 : en:Chapter 1001:22:12.093 : en:Chapter 1101:30:12.365 : en:Chapter 1201:39:59.618 : en:Chapter 1301:46:35.597 : en:Chapter 1401:52:52.891 : en:Chapter 1502:02:00.896 : en:Chapter 1602:04:55.112 : en:Chapter 17 Скриншоты
Скачать Загрузка... DVD Профессиональный многоголосый, профессиональный двухголосый 6,98 Гб MPEG2, NTSC 16:9 ( Русский / Английский 2.0 (192 Kbps)

У нас вы можете легко скачать Неприкаянные через торрент бесплатно в хорошем качестве, оставляйте комментарии и делитесь впечатлениями!



Добавить комментарий

Ваше имя

Комментарий

Все рекомендуемые нами программы доступны на странице Скачать. На сайте КилоТор всегда все новые фильмы, доступные к скачиванию через торрент.

Рекомендуем скачать фильмы через торрент