» » Зуд седьмого года

Зуд седьмого года cкачать торрент

Оригинальное название: The Seven Year Itch
Производство: США
Режиссер: Билли Уайлдер
В ролях: Мэрилин Монро, Том Юэлл, Эвелин Кийес, Сонни Тафтс, Роберт Штраусс, Оскар Хомолка, Маргарит Чэпман, Виктор Мур, Долорес Роздейл, Дональд МакБрайд
Жанр: Комедии, Мелодрамы
Мировая премьера: 1 января 1970
Возраст: 16+
Продолжительность: 105 мин. / 01:45
Рейтинг "Кинопоиска":

Скачать Зуд седьмого года через торрент

Сиды Качество Перевод Размер Видео Аудио
Скачать Загрузка... WEB-DL Дублированный, профессиональный многоголосый 2,79 Гб MPEG-4 AVC, 2094 Кбит/с, 1024x402 Аудио №1: Русский (AC3, 6 ch, 448 Кбит/с) - Дублированный (20 Век Фокс СНГ)Аудио №2: Русский (AC3, 2 ch, 192 Кбит/с) - Профессиональный многоголосый (SomeWax)Аудио №3: Русский (AC3, 2 ch, 192 Кбит/с) - Профессиональный многоголосый (ОРТ)Аудио №4: Русский (AC3, 2 ch, 192 Кбит/с) - Профессиональный многоголосый (НТВ)Аудио №5: Английский (AC3, 6 ch, 448 Кбит/с) MediaInfoОбщееУникальный идентификатор : 254522307829192253478118123510270212424 (0xBF7B36A27301851192574457461F3948)Полное имя : D:7Zud.sed.mogo.goda.1955.x264.BDRip.(AVC).ExKinoRay.mkvФормат : MatroskaРазмер файла : 2,60 ГбайтПродолжительность : 1 ч. 44 м.Общий поток : 3569 Кбит/секНазвание фильма : Zud.sed.mogo.goda.1955.x264.BDRip.(AVC).ExKinoRayДата кодирования : UTC 2014-06-22 16:48:14Программа кодирования : mkvmerge v4.0.0 ('The Stars were mine') сборка от Jun 6 2010 16:18:42Библиотека кодирования : libebml v1.0.0 + libmatroska v1.0.0 ВидеоИдентификатор : 1Формат : AVCФормат/Информация : Advanced Video CodecПрофиль формата : High@L4.1Параметр CABAC формата : ДаПараметр ReFrames формата : 8 кадровИдентификатор кодека : V_MPEG4/ISO/AVCПродолжительность : 1 ч. 44 м.Битрейт : 2094 Кбит/секШирина : 1024 пикс.Высота : 402 пикс.Соотношение сторон : 2,547Частота кадров : 23,976 кадр/секЦветовое пространство : YUVПодвыборка цветности : 4:2:0Битовая глубина : 8 битТип развёртки : ПрогрессивнаяБит/(Пиксели*Кадры) : 0.212Размер потока : 1,48 Гбайт (57%)Заголовок : Rip by Enigma-Vladislav71Библиотека кодирования : x264 core 125 r2208 d9d2288Настройки программы : cabac=1 / ref=8 / deblock=1:-2:-2 / analyse=0x3:0x133 / me=umh / subme=11 / psy=1 / psy_rd=1.00:0.00 / mixed_ref=1 / me_range=48 / chroma_me=1 / trellis=2 / 8x8dct=1 / cqm=0 / deadzone=21,11 / fast_pskip=0 / chroma_qp_offset=-2 / threads=3 / lookahead_threads=1 / sliced_threads=0 / nr=0 / decimate=0 / interlaced=0 / bluray_compat=0 / constrained_intra=0 / bframes=8 / b_pyramid=2 / b_adapt=2 / b_bias=0 / direct=3 / weightb=1 / open_gop=0 / weightp=2 / keyint=240 / keyint_min=23 / scenecut=40 / intra_refresh=0 / rc=2pass / mbtree=0 / bitrate=2094 / ratetol=1.0 / qcomp=0.60 / qpmin=10 / qpmax=51 / qpstep=4 / cplxblur=20.0 / qblur=0.5 / ip_ratio=1.40 / pb_ratio=1.30 / aq=1:1.00Язык : English Аудио #1Идентификатор : 2Формат : AC-3Формат/Информация : Audio Coding 3Расширение режима : CM (complete main)Идентификатор кодека : A_AC3Продолжительность : 1 ч. 44 м.Вид битрейта : ПостоянныйБитрейт : 448 Кбит/секКаналы : 6 каналовРасположение каналов : Front: L C R, Side: L R, LFEЧастота : 48,0 КГцБитовая глубина : 16 битМетод сжатия : С потерямиРазмер потока : 335 Мбайт (13%)Заголовок : Дублированный (20 Век Фокс СНГ)Язык : Russian Аудио #2Идентификатор : 3Формат : AC-3Формат/Информация : Audio Coding 3Профиль формата : Dolby DigitalРасширение режима : CM (complete main)Идентификатор кодека : A_AC3Продолжительность : 1 ч. 44 м.Вид битрейта : ПостоянныйБитрейт : 192 Кбит/секКаналы : 2 каналаРасположение каналов : Front: L RЧастота : 48,0 КГцБитовая глубина : 16 битМетод сжатия : С потерямиРазмер потока : 143 Мбайт (5%)Заголовок : Профессиональный многоголосый (SomeWax)Язык : Russian Аудио #3Идентификатор : 4Формат : AC-3Формат/Информация : Audio Coding 3Профиль формата : Dolby DigitalРасширение режима : CM (complete main)Идентификатор кодека : A_AC3Продолжительность : 1 ч. 44 м.Вид битрейта : ПостоянныйБитрейт : 192 Кбит/секКаналы : 2 каналаРасположение каналов : Front: L RЧастота : 48,0 КГцБитовая глубина : 16 битМетод сжатия : С потерямиРазмер потока : 143 Мбайт (5%)Заголовок : Профессиональный многоголосый (ОРТ)Язык : Russian Аудио #4Идентификатор : 5Формат : AC-3Формат/Информация : Audio Coding 3Профиль формата : Dolby DigitalРасширение режима : CM (complete main)Идентификатор кодека : A_AC3Продолжительность : 1 ч. 44 м.Вид битрейта : ПостоянныйБитрейт : 192 Кбит/секКаналы : 2 каналаРасположение каналов : Front: L RЧастота : 48,0 КГцБитовая глубина : 16 битМетод сжатия : С потерямиРазмер потока : 143 Мбайт (5%)Заголовок : Профессиональный многоголосый (НТВ)Язык : Russian Аудио #5Идентификатор : 6Формат : AC-3Формат/Информация : Audio Coding 3Расширение режима : CM (complete main)Идентификатор кодека : A_AC3Продолжительность : 1 ч. 44 м.Вид битрейта : ПостоянныйБитрейт : 448 Кбит/секКаналы : 6 каналовРасположение каналов : Front: L C R, Side: L R, LFEЧастота : 48,0 КГцБитовая глубина : 16 битМетод сжатия : С потерямиРазмер потока : 335 Мбайт (13%)Заголовок : АнглийскийЯзык : English Текст #1Идентификатор : 7Формат : UTF-8Идентификатор кодека : S_TEXT/UTF8Идентификатор кодека/Информация : UTF-8 Plain TextЯзык : Russian Текст #2Идентификатор : 8Формат : UTF-8Идентификатор кодека : S_TEXT/UTF8Идентификатор кодека/Информация : UTF-8 Plain TextЯзык : English Меню00:00:00.000 : en:Chapter 0100:02:22.642 : en:Chapter 0200:05:29.162 : en:Chapter 0300:10:55.488 : en:Chapter 0400:14:01.841 : en:Chapter 0500:23:27.030 : en:Chapter 0600:28:25.704 : en:Chapter 0700:31:24.674 : en:Chapter 0800:33:31.634 : en:Chapter 0900:44:21.867 : en:Chapter 1000:51:52.109 : en:Chapter 1100:55:25.322 : en:Chapter 1200:58:25.919 : en:Chapter 1301:05:02.189 : en:Chapter 1401:10:06.869 : en:Chapter 1501:13:58.475 : en:Chapter 1601:16:28.584 : en:Chapter 1701:25:13.316 : en:Chapter 1801:31:15.678 : en:Chapter 1901:35:37.565 : en:Chapter 2001:38:53.135 : en:Chapter 2101:42:39.528 : en:Chapter 2201:44:24.007 : en:Chapter 23 Скриншоты

У нас вы можете легко скачать Зуд седьмого года через торрент бесплатно в хорошем качестве, оставляйте комментарии и делитесь впечатлениями!



Добавить комментарий

Ваше имя

Комментарий

Все рекомендуемые нами программы доступны на странице Скачать. На сайте КилоТор всегда все новые фильмы, доступные к скачиванию через торрент.

Рекомендуем скачать фильмы через торрент