» » Вес воды

Вес воды cкачать торрент

Оригинальное название: The Weight of Water
Производство: США, Франция
Режиссер: Кэтрин Бигелоу
В ролях: Элизабет Хёрли, Шон Пенн, Катрин МакКормак, Сара Полли, Киран Хайндс, Ричард Донат, Ульрих Томсен, Андерс В. Бертельсен, Джозеф Раттен, Джон Уолф
Жанр: Триллеры, Драма, Криминальные, Детективы
Мировая премьера: 9 сентября 2000
Премьера в России: 12 июля 2001
Возраст: 16+
Продолжительность: 113 мин. / 01:53
Рейтинг:
6.588
Рейтинг "Кинопоиска":

Скачать Вес воды через торрент

Сиды Качество Перевод Размер Видео Аудио
Скачать Загрузка... DVDRip Дублированный 1,57 Гб XviD, 1530 Кбит/с, 704x400 AC3, 6 ch, 448 Кбит/с
Скачать Загрузка... DVDRip Дублированный, профессиональный многоголосый закадровый 2,34 Гб MPEG-4 AVC, 1875 Кбит/с, 992x552, 25 кадр/с • №1: Русский (AC3, 6 ch, 448 Кбит/с) | Дублированный• №2: Русский (AC3, 6 ch, 448 Кбит/с) | Профессиональный (многоголосый закадровый) • №3: Английский (AC3, 2 ch, 192 Кбит/с) | Оригинал Скриншоты MediaInfoОбщееУникальный идентификатор : 243610581828713166996729008936245639727 (0xB745B101A5226E279765DC8480D1BA2F)Полное имя : D:Ves.vody.2000.x264.DVDRip.(AVC).Marvel.mkvФормат : MatroskaВерсия формата : Version 4 / Version 2Размер файла : 2,18 ГбайтПродолжительность : 1 ч. 45 м.Общий поток : 2965 Кбит/секНазвание фильма : The Weight of Water (2000) -=Marvel=-Дата кодирования : UTC 2015-01-28 09:23:04Программа кодирования : mkvmerge v7.3.0 ('Nouages') 32bit built on Oct 22 2014 18:44:01Библиотека кодирования : libebml v1.3.0 + libmatroska v1.4.1DURATION : 01:45:18.848000000NUMBER_OF_FRAMES : 197464NUMBER_OF_BYTES : 151652352_STATISTICS_WRITING_APP : mkvmerge v7.3.0 ('Nouages') 32bit built on Oct 22 2014 18:44:01_STATISTICS_WRITING_DATE_UTC : 2015-01-28 09:23:04_STATISTICS_TAGS : BPS DURATION NUMBER_OF_FRAMES NUMBER_OF_BYTES ВидеоИдентификатор : 1Формат : AVCФормат/Информация : Advanced Video CodecПрофиль формата : High@L4.1Параметр CABAC формата : ДаПараметр ReFrames формата : 8 кадровИдентификатор кодека : V_MPEG4/ISO/AVCПродолжительность : 1 ч. 45 м.Битрейт : 1875 Кбит/секШирина : 992 пикселяВысота : 552 пикселяСоотношение сторон : 16:9Частота кадров : 25,000 кадров/секЦветовое пространство : YUVСубдискретизация насыщенности : 4:2:0Битовая глубина : 8 битТип развёртки : ПрогрессивнаяБит/(Пиксели*Кадры) : 0.137Размер потока : 1,34 Гбайт (61%)Заголовок : The Weight of Water (2000)Библиотека кодирования : x264 core 130 r2273 b3065e6Настройки программы : cabac=1 / ref=8 / deblock=1:-3:-3 / analyse=0x3:0x133 / me=umh / subme=11 / psy=1 / psy_rd=1.00:0.00 / mixed_ref=1 / me_range=48 / chroma_me=1 / trellis=2 / 8x8dct=1 / cqm=0 / deadzone=21,11 / fast_pskip=0 / chroma_qp_offset=-2 / threads=1 / lookahead_threads=1 / sliced_threads=0 / nr=0 / decimate=1 / interlaced=0 / bluray_compat=0 / constrained_intra=0 / bframes=8 / b_pyramid=2 / b_adapt=2 / b_bias=0 / direct=3 / weightb=1 / open_gop=0 / weightp=2 / keyint=250 / keyint_min=22 / scenecut=40 / intra_refresh=0 / rc=2pass / mbtree=0 / bitrate=1875 / ratetol=1.0 / qcomp=0.60 / qpmin=10 / qpmax=51 / qpstep=4 / cplxblur=20.0 / qblur=0.5 / ip_ratio=1.40 / pb_ratio=1.30 / aq=2:1.00Язык : EnglishDefault : ДаForced : НетDURATION : 01:45:21.040000000NUMBER_OF_FRAMES : 158026NUMBER_OF_BYTES : 1481426166_STATISTICS_WRITING_APP : mkvmerge v7.3.0 ('Nouages') 32bit built on Oct 22 2014 18:44:01_STATISTICS_WRITING_DATE_UTC : 2015-01-28 09:23:04_STATISTICS_TAGS : BPS DURATION NUMBER_OF_FRAMES NUMBER_OF_BYTES Аудио #1Идентификатор : 2Формат : AC-3Формат/Информация : Audio Coding 3Расширение режима : CM (complete main)Параметр Endianness формата : BigИдентификатор кодека : A_AC3Продолжительность : 1 ч. 45 м.Вид битрейта : ПостоянныйБитрейт : 448 Кбит/секКаналы : 6 каналовРасположение каналов : Front: L C R, Side: L R, LFEЧастота : 48,0 КГцБитовая глубина : 16 битМетод сжатия : С потерямиРазмер потока : 338 Мбайт (15%)Заголовок : DUBЯзык : RussianDefault : ДаForced : Нет Аудио #2Идентификатор : 3Формат : AC-3Формат/Информация : Audio Coding 3Расширение режима : CM (complete main)Параметр Endianness формата : BigИдентификатор кодека : A_AC3Продолжительность : 1 ч. 45 м.Вид битрейта : ПостоянныйБитрейт : 448 Кбит/секКаналы : 6 каналовРасположение каналов : Front: L C R, Side: L R, LFEЧастота : 48,0 КГцБитовая глубина : 16 битМетод сжатия : С потерямиРазмер потока : 338 Мбайт (15%)Заголовок : MVOЯзык : RussianDefault : НетForced : Нет Аудио #3Идентификатор : 4Формат : AC-3Формат/Информация : Audio Coding 3Расширение режима : CM (complete main)Параметр Endianness формата : BigИдентификатор кодека : A_AC3Продолжительность : 1 ч. 45 м.Вид битрейта : ПостоянныйБитрейт : 192 Кбит/секКаналы : 2 каналаРасположение каналов : Front: L RЧастота : 48,0 КГцБитовая глубина : 16 битМетод сжатия : С потерямиРазмер потока : 145 Мбайт (6%)Заголовок : ENGЯзык : EnglishDefault : НетForced : Нет

У нас вы можете легко скачать Вес воды через торрент бесплатно в хорошем качестве, оставляйте комментарии и делитесь впечатлениями!



Добавить комментарий

Ваше имя

Комментарий

Все рекомендуемые нами программы доступны на странице Скачать. На сайте КилоТор всегда все новые фильмы, доступные к скачиванию через торрент.

Рекомендуем скачать фильмы через торрент