» » Притворись моим мужем

Притворись моим мужем cкачать торрент

Оригинальное название: You May Not Kiss the Bride
Производство: США
Режиссер: Роб Хедден
В ролях: Дэйв Эннэйбл, Кэтрин МакФи, Роб Шнайдер, Мена Сувари, Кэти Бейтс, Кен Давитян, Тиа Каррере, Кевин Данн, Винни Джонс, Стивен Тоболовски
Жанр: Комедии, Мелодрамы, Приключения
Мировая премьера: 6 апреля 2011
Возраст: 16+
Продолжительность: 100 мин. / 01:40
Рейтинг:
5.992
Рейтинг "Кинопоиска":

Скачать Притворись моим мужем через торрент

Сиды Качество Перевод Размер Видео Аудио
Скачать Загрузка... BDRip1080 профессиональный многоголосый закадровый 8,33 Гб MPEG-4 AVC, 9435 Кбит/с, 1920x1080, 24 кадр/с 1. Русский (DTS, 6 ch, 768 Кбит/с)2. Русский (AC3, 6 ch, 448 Кбит/с)3. Английский (AC3, 6 ch, 448 Кбит/с) МедиаИнфоФормат : MatroskaВерсия формата : Version 2Размер файла : 7,76 ГбайтПродолжительность : 1 ч. 40 м.Общий поток : 11,1 Мбит/секНазвание фильма : ~V ad~Дата кодирования : UTC 2015-03-23 04:32:31Программа кодирования : mkvmerge v6.1.0 ('Old Devil') built on Mar 4 2013 09:10:42Библиотека кодирования : libebml v1.3.0 + libmatroska v1.4.0Обложка : Yes ВидеоИдентификатор : 1Формат : AVCФормат/Информация : Advanced Video CodecПрофиль формата : High@L4.1Параметр CABAC формата : ДаПараметр ReFrames формата : 4 кадраИдентификатор кодека : V_MPEG4/ISO/AVCПродолжительность : 1 ч. 40 м.Битрейт : 9435 Кбит/секШирина : 1920 пикселейВысота : 1080 пикселейСоотношение сторон : 16:9Режим частоты кадров : ПостоянныйЧастота кадров : 24,000 кадра/секЦветовое пространство : YUVСубдискретизация насыщенности : 4:2:0Битовая глубина : 8 битТип развёртки : ПрогрессивнаяБит/(Пиксели*Кадры) : 0.190Размер потока : 6,45 Гбайт (83%)Заголовок : ~V~Библиотека кодирования : x264 core 142 r0+4281 a3bf0d5 Test [8-bit@all X86_64]Настройки программы : cabac=1 / ref=4 / deblock=1:-3:-3 / analyse=0x3:0x133 / me=umh / subme=11 / psy=1 / fade_compensate=0.00 / psy_rd=1.00:0.00 / mixed_ref=1 / me_range=32 / chroma_me=1 / trellis=2 / 8x8dct=1 / cqm=0 / deadzone=21,11 / fast_pskip=0 / chroma_qp_offset=-2 / threads=12 / lookahead_threads=1 / sliced_threads=0 / nr=0 / decimate=0 / interlaced=0 / bluray_compat=0 / constrained_intra=0 / fgo=0 / bframes=8 / b_pyramid=2 / b_adapt=2 / b_bias=0 / direct=3 / weightb=1 / open_gop=0 / weightp=2 / keyint=240 / keyint_min=24 / scenecut=40 / intra_refresh=0 / rc=2pass / mbtree=0 / bitrate=9435 / ratetol=1.0 / qcomp=0.60 / qpmin=0:0:0 / qpmax=69:69:69 / qpstep=4 / cplxblur=20.0 / qblur=0.5 / ip_ratio=1.40 / pb_ratio=1.30 / aq=4:0.75 / aq-sensitivity=11.00 / aq-factor=1.00:1.00:1.00 / aq2=1:0.60 / aq2-sensitivity=13.00 / aq2-factor=1.00:1.00:1.00 / aq3=1:[0.60:0.60]:[0.60:0.60]:[0.60:0.60]:[0.60:0.60] / aq3-sensitivity=9.00 / aq3-factor=[1.00:1.00]:[1.00:1.00]:[1.00:1.00] / aq3-boundary=192:64:24Язык : EnglishDefault : ДаForced : Нет Аудио #1Идентификатор : 2Формат : DTSФормат/Информация : Digital Theater SystemsРежим : 16Параметр Endianness формата : BigИдентификатор кодека : A_DTSПродолжительность : 1 ч. 40 м.Вид битрейта : ПостоянныйБитрейт : 755 Кбит/секКаналы : 6 каналовРасположение каналов : Front: L C R, Side: L R, LFEЧастота : 48,0 КГцБитовая глубина : 24 битМетод сжатия : С потерямиРазмер потока : 541 Мбайт (7%)Заголовок : LicenseЯзык : RussianDefault : НетForced : Нет Аудио #2Идентификатор : 3Формат : AC-3Формат/Информация : Audio Coding 3Расширение режима : CM (complete main)Параметр Endianness формата : BigИдентификатор кодека : A_AC3Продолжительность : 1 ч. 40 м.Вид битрейта : ПостоянныйБитрейт : 448 Кбит/секКаналы : 6 каналовРасположение каналов : Front: L C R, Side: L R, LFEЧастота : 48,0 КГцБитовая глубина : 16 битМетод сжатия : С потерямиРазмер потока : 321 Мбайт (4%)Заголовок : LicenseЯзык : RussianDefault : ДаForced : Да Аудио #3Идентификатор : 4Формат : AC-3Формат/Информация : Audio Coding 3Расширение режима : CM (complete main)Параметр Endianness формата : BigИдентификатор кодека : A_AC3Продолжительность : 1 ч. 40 м.Вид битрейта : ПостоянныйБитрейт : 448 Кбит/секКаналы : 6 каналовРасположение каналов : Front: L C R, Side: L R, LFEЧастота : 48,0 КГцБитовая глубина : 16 битМетод сжатия : С потерямиРазмер потока : 321 Мбайт (4%)Заголовок : OriginalЯзык : EnglishDefault : НетForced : Нет Меню00:00:00.000 : en:0100:02:12.291 : en:0200:14:30.916 : en:0300:28:05.833 : en:0400:42:18.666 : en:0500:53:24.041 : en:0601:03:48.125 : en:0701:14:12.791 : en:0801:23:41.583 : en:0901:30:00.000 : en:1001:35:32.500 : en:11 х264x264 [info]: frame I:1513 Avg QP:16.29 size:210042x264 [info]: frame P:34678 Avg QP:18.87 size: 85287x264 [info]: frame B:108066 Avg QP:19.81 size: 35286x264 [info]: consecutive B-frames: 3.3% 4.2% 13.4% 20.4% 15.1% 37.4% 4.9% 0.4% Скриншоты

У нас вы можете легко скачать Притворись моим мужем через торрент бесплатно в хорошем качестве, оставляйте комментарии и делитесь впечатлениями!



Добавить комментарий

Ваше имя

Комментарий

Все рекомендуемые нами программы доступны на странице Скачать. На сайте КилоТор всегда все новые фильмы, доступные к скачиванию через торрент.

Рекомендуем скачать фильмы через торрент