» » Великая иллюзия

Великая иллюзия cкачать торрент

Оригинальное название: La grande illusion
Производство: Франция
Режиссер: Жан Ренуар
В ролях: Жан Габен, Пьер Френе, Марсель Далио, Эрих фон Штрогейм, Дита Парло, Жюльен Каретт, Жорж Пекле, Вернер Флориан, Жан Дасте, Сильвен Иткин
Жанр: Драма, Военные
Мировая премьера: 1 января 1970
Возраст: 12+
Продолжительность: 114 мин. / 01:54
Рейтинг "Кинопоиска":

Скачать Великая иллюзия через торрент

Сиды Качество Перевод Размер Видео Аудио
Скачать Загрузка... WEB-DL Профессиональный многоголосый 2,92 Гб MPEG-4 AVC, 2655 Кбит/с, 784x576 Аудио №1: Русский (AC3, 2 ch, 192 Кбит/с) - Профессиональный многоголосый (Петербург 5-й канал)Аудио №2: Русский (AC3, 2 ch, 192 Кбит/с) - Профессиональный многоголосый(Film Prestige)Аудио №3: Русский (AC3, 2 ch, 192 Кбит/с) - Профессиональный многоголосый (DVD Магия) Аудио №4: Русский (AC3, 2 ch, 192 Кбит/с) - Профессиональный многоголосый (Светла) MediaInfoОбщееУникальный идентификатор : 238246945035979950103792605038189990602 (0xB33CB14BA2B56944BBED17EA5E7BD2CA)Полное имя : D:фильмыVelikaja.illjuzija.1937.x264.BDRip.(AVC).ExKinoRay.mkvФормат : MatroskaРазмер файла : 2,72 ГбайтПродолжительность : 1 ч. 53 м.Общий поток : 3425 Кбит/секНазвание фильма : Velikaja.illjuzija.1937.x264.BDRip.(AVC).ExKinoRayДата кодирования : UTC 2014-03-17 17:40:36Программа кодирования : mkvmerge v4.0.0 ('The Stars were mine') сборка от Jun 6 2010 16:18:42Библиотека кодирования : libebml v1.0.0 + libmatroska v1.0.0 ВидеоИдентификатор : 1Формат : AVCФормат/Информация : Advanced Video CodecПрофиль формата : High@L4.1Параметр CABAC формата : ДаПараметр ReFrames формата : 8 кадровИдентификатор кодека : V_MPEG4/ISO/AVCПродолжительность : 1 ч. 53 м.Битрейт : 2655 Кбит/секШирина : 784 пикс.Высота : 576 пикс.Соотношение сторон : 4:3Частота кадров : 24,000 кадр/секЦветовое пространство : YUVПодвыборка цветности : 4:2:0Битовая глубина : 8 битТип развёртки : ПрогрессивнаяБит/(Пиксели*Кадры) : 0.245Размер потока : 2,06 Гбайт (76%)Заголовок : Rip by Enigma-Vladislav71Библиотека кодирования : x264 core 125 r2208 d9d2288Настройки программы : cabac=1 / ref=8 / deblock=1:-2:-2 / analyse=0x3:0x133 / me=umh / subme=11 / psy=1 / psy_rd=1.00:0.00 / mixed_ref=1 / me_range=48 / chroma_me=1 / trellis=2 / 8x8dct=1 / cqm=0 / deadzone=21,11 / fast_pskip=0 / chroma_qp_offset=-2 / threads=3 / lookahead_threads=1 / sliced_threads=0 / nr=0 / decimate=0 / interlaced=0 / bluray_compat=0 / constrained_intra=0 / bframes=8 / b_pyramid=2 / b_adapt=2 / b_bias=0 / direct=3 / weightb=1 / open_gop=0 / weightp=2 / keyint=240 / keyint_min=23 / scenecut=40 / intra_refresh=0 / rc=2pass / mbtree=0 / bitrate=2655 / ratetol=1.0 / qcomp=0.60 / qpmin=10 / qpmax=51 / qpstep=4 / cplxblur=20.0 / qblur=0.5 / ip_ratio=1.40 / pb_ratio=1.30 / aq=1:1.00Язык : English Аудио #1Идентификатор : 2Формат : AC-3Формат/Информация : Audio Coding 3Расширение режима : CM (complete main)Идентификатор кодека : A_AC3Продолжительность : 1 ч. 53 м.Вид битрейта : ПостоянныйБитрейт : 192 Кбит/секКаналы : 2 каналаРасположение каналов : Front: L RЧастота : 48,0 КГцБитовая глубина : 16 битМетод сжатия : С потерямиРазмер потока : 156 Мбайт (6%)Заголовок : Петербург 5-й каналЯзык : Russian Аудио #2Идентификатор : 3Формат : AC-3Формат/Информация : Audio Coding 3Расширение режима : CM (complete main)Идентификатор кодека : A_AC3Продолжительность : 1 ч. 53 м.Вид битрейта : ПостоянныйБитрейт : 192 Кбит/секКаналы : 2 каналаРасположение каналов : Front: L RЧастота : 48,0 КГцБитовая глубина : 16 битМетод сжатия : С потерямиРазмер потока : 156 Мбайт (6%)Заголовок : Film PrestigeЯзык : Russian Аудио #3Идентификатор : 4Формат : AC-3Формат/Информация : Audio Coding 3Расширение режима : CM (complete main)Идентификатор кодека : A_AC3Продолжительность : 1 ч. 53 м.Вид битрейта : ПостоянныйБитрейт : 192 Кбит/секКаналы : 2 каналаРасположение каналов : Front: L RЧастота : 48,0 КГцБитовая глубина : 16 битМетод сжатия : С потерямиРазмер потока : 156 Мбайт (6%)Заголовок : DVD МагияЯзык : Russian Аудио #4Идентификатор : 5Формат : AC-3Формат/Информация : Audio Coding 3Расширение режима : CM (complete main)Идентификатор кодека : A_AC3Продолжительность : 1 ч. 53 м.Вид битрейта : ПостоянныйБитрейт : 192 Кбит/секКаналы : 2 каналаРасположение каналов : Front: L RЧастота : 48,0 КГцБитовая глубина : 16 битМетод сжатия : С потерямиРазмер потока : 156 Мбайт (6%)Заголовок : СветлаЯзык : Russian Меню00:00:00.000 : en:Chapter 0100:08:09.915 : en:Chapter 0200:17:32.166 : en:Chapter 0300:29:48.333 : en:Chapter 0400:35:06.125 : en:Chapter 0500:44:58.625 : en:Chapter 0600:57:18.000 : en:Chapter 0701:03:10.958 : en:Chapter 0801:12:46.500 : en:Chapter 0901:29:03.875 : en:Chapter 1001:38:57.832 : en:Chapter 1101:47:01.666 : en:Chapter 12 Скриншоты

У нас вы можете легко скачать Великая иллюзия через торрент бесплатно в хорошем качестве, оставляйте комментарии и делитесь впечатлениями!



Добавить комментарий

Ваше имя

Комментарий

Все рекомендуемые нами программы доступны на странице Скачать. На сайте КилоТор всегда все новые фильмы, доступные к скачиванию через торрент.

Рекомендуем скачать фильмы через торрент