» » Мститель

Мститель cкачать торрент

Оригинальное название: The Escapist
Производство: Великобритания
Режиссер: Гиллис МакКиннон
В ролях: Джонни Ли Миллер, Энди Серкис, Гари Льюис, Джоди Мэй, Палома Баэза, Вэс Блэквуд, Фил Барантини, Бэрри Барнс, Майкл Бейтс, Джерри Биэн
Жанр: Боевики, Триллеры, Драма, Криминальные
Мировая премьера: 12 апреля 2002
Возраст: 16+
Продолжительность: 88 мин. / 01:28
Рейтинг:
6.846
Рейтинг "Кинопоиска":

Скачать Мститель через торрент

Сиды Качество Перевод Размер Видео Аудио
Скачать Загрузка... DVDRip Профессиональный многоголосый закадровый 2,34 Гб MPEG-4 AVC, 2827 Кбит/с, 1024x552, 25.000 кадр/с • №1: Русский (AC3, 6 ch, 384 Кбит/с) | Профессиональный многоголосый• №2: Английский (AC3, 6 ch, 384 Кбит/с) Скриншоты MediaInfoОбщееУникальный идентификатор : 196173673547401723622623019845214440587 (0x9395ACDB1F4570768C9DDCC52DDE8C8B)Полное имя : D:MSTITEL.2002.x264.DVDRip.(AVC).Marvel.mkvФормат : MatroskaВерсия формата : Version 4 / Version 2Размер файла : 2,18 ГбайтПродолжительность : 1 ч. 26 м.Общий поток : 3595 Кбит/секНазвание фильма : The Escapist (2002) -=Marvel=-Дата кодирования : UTC 2015-10-10 08:45:15Программа кодирования : mkvmerge v7.3.0 ('Nouages') 32bit built on Oct 22 2014 18:44:01Библиотека кодирования : libebml v1.3.0 + libmatroska v1.4.1DURATION : 01:26:44.512000000NUMBER_OF_FRAMES : 162641NUMBER_OF_BYTES : 249816576_STATISTICS_WRITING_APP : mkvmerge v7.3.0 ('Nouages') 32bit built on Oct 22 2014 18:44:01_STATISTICS_WRITING_DATE_UTC : 2015-10-10 08:45:15_STATISTICS_TAGS : BPS DURATION NUMBER_OF_FRAMES NUMBER_OF_BYTES ВидеоИдентификатор : 1Формат : AVCФормат/Информация : Advanced Video CodecПрофиль формата : High@L4.1Параметр CABAC формата : ДаПараметр ReFrames формата : 8 кадровИдентификатор кодека : V_MPEG4/ISO/AVCПродолжительность : 1 ч. 26 м.Битрейт : 2827 Кбит/секШирина : 1024 пикселяВысота : 552 пикселяСоотношение сторон : 1,85:1Частота кадров : 25,000 кадров/секЦветовое пространство : YUVСубдискретизация насыщенности : 4:2:0Битовая глубина : 8 битТип развёртки : ПрогрессивнаяБит/(Пиксели*Кадры) : 0.200Размер потока : 1,67 Гбайт (77%)Заголовок : The Escapist (2002)Библиотека кодирования : x264 core 130 r2273 b3065e6Настройки программы : cabac=1 / ref=8 / deblock=1:-3:-3 / analyse=0x3:0x133 / me=umh / subme=11 / psy=1 / psy_rd=1.00:0.00 / mixed_ref=1 / me_range=48 / chroma_me=1 / trellis=2 / 8x8dct=1 / cqm=0 / deadzone=21,11 / fast_pskip=0 / chroma_qp_offset=-2 / threads=1 / lookahead_threads=1 / sliced_threads=0 / nr=0 / decimate=1 / interlaced=0 / bluray_compat=0 / constrained_intra=0 / bframes=8 / b_pyramid=2 / b_adapt=2 / b_bias=0 / direct=3 / weightb=1 / open_gop=0 / weightp=2 / keyint=250 / keyint_min=22 / scenecut=40 / intra_refresh=0 / rc=2pass / mbtree=0 / bitrate=2827 / ratetol=1.0 / qcomp=0.60 / qpmin=10 / qpmax=51 / qpstep=4 / cplxblur=20.0 / qblur=0.5 / ip_ratio=1.40 / pb_ratio=1.30 / aq=2:1.00Язык : EnglishDefault : ДаForced : ДаDURATION : 01:26:43.080000000NUMBER_OF_FRAMES : 130077NUMBER_OF_BYTES : 1838010315_STATISTICS_WRITING_APP : mkvmerge v7.3.0 ('Nouages') 32bit built on Oct 22 2014 18:44:01_STATISTICS_WRITING_DATE_UTC : 2015-10-10 08:45:15_STATISTICS_TAGS : BPS DURATION NUMBER_OF_FRAMES NUMBER_OF_BYTES Аудио #1Идентификатор : 2Формат : AC-3Формат/Информация : Audio Coding 3Расширение режима : CM (complete main)Параметр Endianness формата : BigИдентификатор кодека : A_AC3Продолжительность : 1 ч. 26 м.Вид битрейта : ПостоянныйБитрейт : 384 Кбит/секКаналы : 6 каналовРасположение каналов : Front: L C R, Side: L R, LFEЧастота : 48,0 КГцБитовая глубина : 16 битМетод сжатия : С потерямиРазмер потока : 238 Мбайт (11%)Заголовок : MVOЯзык : RussianDefault : ДаForced : Да Аудио #2Идентификатор : 3Формат : AC-3Формат/Информация : Audio Coding 3Расширение режима : CM (complete main)Параметр Endianness формата : BigИдентификатор кодека : A_AC3Продолжительность : 1 ч. 26 м.Вид битрейта : ПостоянныйБитрейт : 384 Кбит/секКаналы : 6 каналовРасположение каналов : Front: L C R, Side: L R, LFEЧастота : 48,0 КГцБитовая глубина : 16 битМетод сжатия : С потерямиРазмер потока : 238 Мбайт (11%)Заголовок : EngЯзык : EnglishDefault : НетForced : Нет

У нас вы можете легко скачать Мститель через торрент бесплатно в хорошем качестве, оставляйте комментарии и делитесь впечатлениями!



Добавить комментарий

Ваше имя

Комментарий

Все рекомендуемые нами программы доступны на странице Скачать. На сайте КилоТор всегда все новые фильмы, доступные к скачиванию через торрент.

Рекомендуем скачать фильмы через торрент