» » 300 спартанцев

300 спартанцев cкачать торрент

Оригинальное название: The 300 Spartans
Производство: США
Режиссер: Рудольф Мате
В ролях: Ричард Иган, Ральф Ричардсон, Дайан Бэйкер, Бэрри Коу, Дэвид Фаррар, Дональд Хьюстон, Анна Синодину, Кирон Мур, Джон Кроуфорд, Роберт Браун
Жанр: Драма, Приключения, Военные, Исторические
Мировая премьера: 1 января 1970
Возраст: 0+
Продолжительность: 114 мин. / 01:54
Рейтинг "Кинопоиска":

Описание фильма "300 спартанцев"

Один из любимых исторических фильмов, правда не знаю можно ли его назвать историческим. Перемешали историю и фантастику, любовь и политические интриги. Многим он не нравится, но мне приглянулся. Даже не верится, что из низкого бюджета американцы могли сделать из этого почти шедевр с помощью компьютерной техники.

Сам фильм сделан в мрачных красках, как будто не художественный а документальный. Вначале показывается жизнь малолетних спартанцев, их воспитание. Воспитание будущего царя Спарты Леонида, которое ничем не отличалось от жизни других низкосословных детей. С раннего детства их отдали в специализированные школы, где они изучали военное дело, и всячески готовились к войне.

Спарта была в общем-то средненьким городом-государством Древней Греции, но очень национализированным. Благодаря наращенной военной машине это захолустное государство стало завоёвывать соседние государства и благодаря удачной политике своих царей превратилось в мощное военное государство. Конечно самые захватывающие моменты-это батальные сцены.

Их так хорошо сделали что можно пересматривать их по многу раз. Особенно бой с бессмертными (бессмертными называли воинов Персии из-за ихнего боевого строевого порядка. Когда воин в передней колонии выбывал из строя, задние тут-же становились на его место, и сколько бы противник их не косил, они не замечали что воины убывают, порядок оставался ненарушенным и вселял в противника ужас, так называемая психологическая атака) и битва с гиганстским безумным чёрным воином.

Америкашки конечно переусердствовали с персидским царём Ксерксом, сделали его негром(наверное из-за толерантности) и вдобавок он предстал перед зрителями весь в пирсинге. Ксеркс наверное в гробу переворачивается. Тем не менее образ царя Персии был сделан очень хорошо, как будто не землянин а бог сошедший с неба с грозовым голосом.

Хотя Ксеркс был всего-лишь неудачным царём, который должен был по традиции воевать с Грецией, что-бы поддерживать свой рейтинг. Отличные съёмки с использованием персами диких зверей и алхимиков. Вот ради этих баталий и есть смысл смотреть этот фильм.

Скачать 300 спартанцев через торрент

Сиды Качество Перевод Размер Видео Аудио
Скачать Загрузка... BDRip1080 Профессиональный (дублированный) R5 "Светла" - Мосфильм + MVOПрофессиональный (многоголосый, закадровый) R5 "20 век Фокс"Авторский (одноголосый, закадровый) Немахов Юрий ГеннадьевичАвторский (одноголосый, закадровый) Визгунов СергейСубтитры 12,68 Гб 1920x816 , 13000 kbps, 23,976 fps DTS, 1 ch, 768 kbps (Eng)
Скачать Загрузка... BDRip1080 Профессиональный (полное дублирование)( 4,69 Гб AVC, 1280x544 (2.35:1), 4474 kbps, 23,976 fps, 0,268 bpp английский / AC3 / 2.0 / 48 kHz / 192 kbps
Скачать Загрузка... WEB-DL Профессиональный (полное дублирование) Советский дубляж + вставки MVO на вырезанных в советском прокате сценах 781,72 Мб 736x312 (2.35:1), 23.976 fps, H264 ~ 850 Kbps, 0.154 bit/pixel 48 KHz / 24 KHz, AAC HE-AAC / LC, 2/0 (L,R) ch, ~64 kbps
Скачать Загрузка... WEB-DL Дублированный, профессиональный многоголосый, авторский 2,72 Гб MPEG-4 AVC, 2158 Кбит/с, 1024x436 Аудио №1: Русский (AC3, 2 ch, 192 Кбит/с) - Дублированный (+ вставки многоголосого)Аудио №2: Русский (AC3, 6 ch, 448 Кбит/с) - Профессиональный многоголосый (DVD R5 "20 век Фокс")Аудио №3: Русский (AC3, 2 ch, 192 Кбит/с) - Авторский одноголосый (С.Визгунов)Аудио №4: Английский (AC3, 2 ch, 192 Кбит/с) MediaInfoОбщееУникальный идентификатор : 227074874993030940315244777736834292224 (0xAAD507B70A0984E2B0948F95B67A9A00)Полное имя : D:фильмы300.Spartanzev.1962.x264.HDRip.(AVC).ExKinoRay.mkvФормат : MatroskaРазмер файла : 2,53 ГбайтПродолжительность : 1 ч. 53 м.Общий поток : 3185 Кбит/секНазвание фильма : 300.Spartanzev.1962.x264.HDRip.(AVC).ExKinoRayДата кодирования : UTC 2014-03-29 09:41:21Программа кодирования : mkvmerge v4.0.0 ('The Stars were mine') сборка от Jun 6 2010 16:18:42Библиотека кодирования : libebml v1.0.0 + libmatroska v1.0.0 ВидеоИдентификатор : 1Формат : AVCФормат/Информация : Advanced Video CodecПрофиль формата : High@L4.1Параметр CABAC формата : ДаПараметр ReFrames формата : 8 кадровИдентификатор кодека : V_MPEG4/ISO/AVCПродолжительность : 1 ч. 53 м.Битрейт : 2158 Кбит/секШирина : 1024 пикс.Высота : 436 пикс.Соотношение сторон : 2,35:1Частота кадров : 23,976 кадр/секЦветовое пространство : YUVПодвыборка цветности : 4:2:0Битовая глубина : 8 битТип развёртки : ПрогрессивнаяБит/(Пиксели*Кадры) : 0.202Размер потока : 1,67 Гбайт (66%)Заголовок : Rip by Enigma-Vladislav71Библиотека кодирования : x264 core 129 r2245 bc13772Настройки программы : cabac=1 / ref=8 / deblock=1:-2:-2 / analyse=0x3:0x133 / me=umh / subme=11 / psy=1 / psy_rd=1.00:0.00 / mixed_ref=1 / me_range=48 / chroma_me=1 / trellis=2 / 8x8dct=1 / cqm=0 / deadzone=21,11 / fast_pskip=0 / chroma_qp_offset=-2 / threads=3 / lookahead_threads=1 / sliced_threads=0 / nr=0 / decimate=0 / interlaced=0 / bluray_compat=0 / constrained_intra=0 / bframes=8 / b_pyramid=2 / b_adapt=2 / b_bias=0 / direct=3 / weightb=1 / open_gop=0 / weightp=2 / keyint=240 / keyint_min=23 / scenecut=40 / intra_refresh=0 / rc=2pass / mbtree=0 / bitrate=2158 / ratetol=1.0 / qcomp=0.60 / qpmin=10 / qpmax=51 / qpstep=4 / cplxblur=20.0 / qblur=0.5 / ip_ratio=1.40 / pb_ratio=1.30 / aq=2:1.00Язык : English Аудио #1Идентификатор : 2Формат : AC-3Формат/Информация : Audio Coding 3Расширение режима : CM (complete main)Идентификатор кодека : A_AC3Продолжительность : 1 ч. 53 м.Вид битрейта : ПостоянныйБитрейт : 192 Кбит/секКаналы : 2 каналаРасположение каналов : Front: L RЧастота : 48,0 КГцБитовая глубина : 16 битМетод сжатия : С потерямиРазмер потока : 156 Мбайт (6%)Заголовок : Дублированный (+ вставки многоголосого)Язык : Russian Аудио #2Идентификатор : 3Формат : AC-3Формат/Информация : Audio Coding 3Расширение режима : CM (complete main)Идентификатор кодека : A_AC3Продолжительность : 1 ч. 53 м.Вид битрейта : ПостоянныйБитрейт : 448 Кбит/секКаналы : 6 каналовРасположение каналов : Front: L C R, Side: L R, LFEЧастота : 48,0 КГцБитовая глубина : 16 битМетод сжатия : С потерямиРазмер потока : 365 Мбайт (14%)Заголовок : Профессиональный многоголосый (DVD R5 "20 век Фокс")Язык : Russian Аудио #3Идентификатор : 4Формат : AC-3Формат/Информация : Audio Coding 3Расширение режима : CM (complete main)Идентификатор кодека : A_AC3Продолжительность : 1 ч. 53 м.Вид битрейта : ПостоянныйБитрейт : 192 Кбит/секКаналы : 2 каналаРасположение каналов : Front: L RЧастота : 48,0 КГцБитовая глубина : 16 битМетод сжатия : С потерямиРазмер потока : 156 Мбайт (6%)Заголовок : Авторский одноголосый (С.Визгунов)Язык : Russian Аудио #4Идентификатор : 5Формат : AC-3Формат/Информация : Audio Coding 3Расширение режима : CM (complete main)Идентификатор кодека : A_AC3Продолжительность : 1 ч. 53 м.Вид битрейта : ПостоянныйБитрейт : 192 Кбит/секКаналы : 2 каналаРасположение каналов : Front: L RЧастота : 48,0 КГцБитовая глубина : 16 битМетод сжатия : С потерямиРазмер потока : 156 Мбайт (6%)Заголовок : АнглийскийЯзык : English Текст #1Идентификатор : 6Формат : UTF-8Идентификатор кодека : S_TEXT/UTF8Идентификатор кодека/Информация : UTF-8 Plain TextЯзык : Russian Текст #2Идентификатор : 7Формат : UTF-8Идентификатор кодека : S_TEXT/UTF8Идентификатор кодека/Информация : UTF-8 Plain TextЯзык : English Скриншоты

У нас вы можете легко скачать 300 спартанцев через торрент бесплатно в хорошем качестве, оставляйте комментарии и делитесь впечатлениями!



Добавить комментарий

Ваше имя

Комментарий

Все рекомендуемые нами программы доступны на странице Скачать. На сайте КилоТор всегда все новые фильмы, доступные к скачиванию через торрент.

Рекомендуем скачать фильмы через торрент