» » 30 дней ночи

30 дней ночи cкачать торрент

Оригинальное название: 30 Days of Night
Производство: США, Новая Зеландия
Режиссер: Дэвид Слэйд
В ролях: Джош Хартнетт, Мелисса Джордж, Дэнни Хьюстон, Бен Фостер, Марк Бун Джуниор, Марк Рендалл, Эмбер Сейнсбури, Ману Беннетт, Меган Фрэнич, Джоэль Тобек
Жанр: Ужасы, Триллеры
Мировая премьера: 16 октября 2007
Премьера в России: 8 ноября 2007
Возраст: 18+
Продолжительность: 113 мин. / 01:53
Рейтинг:
6.602
Рейтинг "Кинопоиска":

Скачать 30 дней ночи через торрент

Сиды Качество Перевод Размер Видео Аудио
Скачать Загрузка... BDRemux Дублированный / Профессиональный многоголосый / Авторский одноголосый (Немахов, Строев) 34,96 Гб MPEG-4 AVC, 24760 Кбит/с, 1920x1080, 23.976 кадр/с Русский (AC3, 6 ch, 448 Кбит/с), (DTS-HD MА, 2 ch, 3909 Кбит/с), (DTS-HD MА, 6 ch, 3914 Кбит/с), английский (TrueHD, 6 ch, 3526 Кбит/с), (AC3, 2 ch, 192 Кбит/с)
Скачать Загрузка... WEB-DL Дублированный, профессиональный многоголосый, авторский 3,71 Гб MPEG-4 AVC, 2777 Кбит/с, 1024x424, 23.976 кадр/с • №1: Русский (AC3, 6 ch, 384 Кбит/с) Дублированный• №2: Русский (AC3, 6 ch, 384 Кбит/с) Профессиональный многоголосый [Киномания]• №3: Русский (AC3, 6 ch, 448 Кбит/с) Авторский одноголосый [Юрий Немахов]• №4: Английский (AC3, 6 ch, 384 Кбит/с) MediaInfo----------------------------------------------------------------------x264 [info]: frame I:1258 Avg QP:14.35 size: 70381x264 [info]: frame P:33327 Avg QP:17.26 size: 27631x264 [info]: frame B:128110 Avg QP:19.17 size: 10480---------------------------------------------------------------------- Формат : MatroskaВерсия формата : Version 2Размер файла : 3,46 ГбайтПродолжительность : 1 ч. 53 м.Общий поток : 4375 Кбит/секНазвание фильма : 30 дней ночи / 30 Days of Night [2007] -=BDRip (AVC) by 0ptimus=-Дата кодирования : UTC 2012-11-24 09:54:30Программа кодирования : mkvmerge v5.8.0 ('No Sleep / Pillow') built on Sep 2 2012 15:37:04Библиотека кодирования : libebml v1.2.3 + libmatroska v1.3.0 ВидеоИдентификатор : 1Формат : AVCФормат/Информация : Advanced Video CodecПрофиль формата : High@L4.1Параметр CABAC формата : ДаПараметр ReFrames формата : 9 кадровИдентификатор кодека : V_MPEG4/ISO/AVCБитрейт : 2777 Кбит/секШирина : 1024 пикселяВысота : 424 пикселяСоотношение сторон : 2,40:1Режим частоты кадров : ПеременныйЧастота кадров в оригинале : 23,976 кадра/секЦветовое пространство : YUVСубдискретизация насыщенности : 4:2:0Битовая глубина : 8 битТип развёртки : ПрогрессивнаяБит/(Пиксели*Кадры) : 0.267Заголовок : Rip by 0ptimusБиблиотека кодирования : x264 core 129 r2230 1cffe9fНастройки программы : cabac=1 / ref=9 / deblock=1:-2:-1 / analyse=0x3:0x113 / me=umh / subme=11 / psy=1 / psy_rd=1.00:0.20 / mixed_ref=1 / me_range=32 / chroma_me=1 / trellis=2 / 8x8dct=1 / cqm=0 / deadzone=21,11 / fast_pskip=0 / chroma_qp_offset=-3 / threads=4 / lookahead_threads=1 / sliced_threads=0 / nr=0 / decimate=0 / interlaced=0 / bluray_compat=0 / constrained_intra=0 / bframes=11 / b_pyramid=2 / b_adapt=2 / b_bias=0 / direct=3 / weightb=1 / open_gop=0 / weightp=2 / keyint=240 / keyint_min=23 / scenecut=40 / intra_refresh=0 / rc_lookahead=40 / rc=2pass / mbtree=0 / bitrate=2777 / ratetol=1.0 / qcomp=0.60 / qpmin=0 / qpmax=69 / qpstep=4 / cplxblur=20.0 / qblur=0.5 / vbv_maxrate=50000 / vbv_bufsize=50000 / nal_hrd=none / ip_ratio=1.40 / pb_ratio=1.30 / aq=1:1.00Язык : EnglishDefault : ДаForced : Да Аудио #1Идентификатор : 2Формат : AC-3Формат/Информация : Audio Coding 3Расширение режима : CM (complete main)Параметр Endianness формата : BigИдентификатор кодека : A_AC3Продолжительность : 1 ч. 53 м.Вид битрейта : ПостоянныйБитрейт : 384 Кбит/секКаналы : 6 каналовРасположение каналов : Front: L C R, Side: L R, LFEЧастота : 48,0 КГцБитовая глубина : 16 битМетод сжатия : С потерямиРазмер потока : 311 Мбайт (9%)Заголовок : ДублированныйЯзык : RussianDefault : ДаForced : Да Аудио #2Идентификатор : 3Формат : AC-3Формат/Информация : Audio Coding 3Расширение режима : CM (complete main)Параметр Endianness формата : BigИдентификатор кодека : A_AC3Продолжительность : 1 ч. 53 м.Вид битрейта : ПостоянныйБитрейт : 384 Кбит/секКаналы : 6 каналовРасположение каналов : Front: L C R, Side: L R, LFEЧастота : 48,0 КГцБитовая глубина : 16 битМетод сжатия : С потерямиРазмер потока : 311 Мбайт (9%)Заголовок : Многоголосый [Киномания]Язык : RussianDefault : НетForced : Нет Аудио #3Идентификатор : 4Формат : AC-3Формат/Информация : Audio Coding 3Расширение режима : CM (complete main)Параметр Endianness формата : BigИдентификатор кодека : A_AC3Продолжительность : 1 ч. 53 м.Вид битрейта : ПостоянныйБитрейт : 448 Кбит/секКаналы : 6 каналовРасположение каналов : Front: L C R, Side: L R, LFEЧастота : 48,0 КГцБитовая глубина : 16 битМетод сжатия : С потерямиРазмер потока : 362 Мбайт (10%)Заголовок : Авторский [Юрий Немахов]Язык : RussianDefault : НетForced : Нет Аудио #4Идентификатор : 5Формат : AC-3Формат/Информация : Audio Coding 3Расширение режима : CM (complete main)Параметр Endianness формата : BigИдентификатор кодека : A_AC3Продолжительность : 1 ч. 53 м.Вид битрейта : ПостоянныйБитрейт : 384 Кбит/секКаналы : 6 каналовРасположение каналов : Front: L C R, Side: L R, LFEЧастота : 48,0 КГцБитовая глубина : 16 битМетод сжатия : С потерямиРазмер потока : 311 Мбайт (9%)Язык : EnglishDefault : НетForced : Нет Текст #1Идентификатор : 6Формат : UTF-8Идентификатор кодека : S_TEXT/UTF8Идентификатор кодека/Информация : UTF-8 Plain TextЗаголовок : R5Язык : RussianDefault : НетForced : Нет Текст #2Идентификатор : 7Формат : UTF-8Идентификатор кодека : S_TEXT/UTF8Идентификатор кодека/Информация : UTF-8 Plain TextЗаголовок : КиноманияЯзык : RussianDefault : НетForced : Нет Текст #3Идентификатор : 8Формат : UTF-8Идентификатор кодека : S_TEXT/UTF8Идентификатор кодека/Информация : UTF-8 Plain TextЯзык : EnglishDefault : НетForced : Нет Меню00:00:00.000 : :Chapter 0100:06:31.140 : :Chapter 0200:14:51.432 : :Chapter 0300:21:05.639 : :Chapter 0400:28:12.899 : :Chapter 0500:35:53.151 : :Chapter 0600:41:37.995 : :Chapter 0700:50:26.440 : :Chapter 0800:54:39.901 : :Chapter 0901:02:24.449 : :Chapter 1001:09:03.264 : :Chapter 1101:14:49.443 : :Chapter 1201:23:20.578 : :Chapter 1301:26:41.070 : :Chapter 1401:33:37.111 : :Chapter 1501:38:00.332 : :Chapter 16Скриншоты
Скачать Загрузка... WEB-DL Профессиональный (полное дублирование) 782,63 Мб 816x336 (2.40:1), 23.976 fps, MPEG-4 / AVC ~842 kbps avg, 0.128 bit/pixel 48 kHz, AAC-HE, 2 ch, ~80 kbps avg

У нас вы можете легко скачать 30 дней ночи через торрент бесплатно в хорошем качестве, оставляйте комментарии и делитесь впечатлениями!



Добавить комментарий

Ваше имя

Комментарий

Все рекомендуемые нами программы доступны на странице Скачать. На сайте КилоТор всегда все новые фильмы, доступные к скачиванию через торрент.

Рекомендуем скачать фильмы через торрент