» » Седьмое путешествие Синдбада

Седьмое путешествие Синдбада cкачать торрент

Оригинальное название: The 7th Voyage of Sinbad
Производство: США
Режиссер: Нэйтан Юран
В ролях: Кервин Мэтьюз, Кэтрин Грант, Ричард Айер, Торин Тэтчер, Алек Мэнго, Дэнни Грин, Харольд Каскет, Альфред Браун, Нана ДэХеррера, Нино Фаланга
Жанр: Боевики, Фэнтези, Приключения, Семейные
Мировая премьера: 1 января 1970
Возраст: 0+
Продолжительность: 88 мин. / 01:28
Рейтинг "Кинопоиска":

Скачать Седьмое путешествие Синдбада через торрент

Сиды Качество Перевод Размер Видео Аудио
Скачать Загрузка... WEB-DL Дублированный, профессиональный многоголосый, авторский одноголосый 3,02 Гб MPEG-4 AVC, 3248 Кбит/с, 960x576 Аудио №1: Русский (AC3, 2 ch, 224 Кбит/с) - Дублированный Аудио №2: Русский (AC3, 2 ch, 448 Кбит/с) - Профессиональный многоголосый Аудио №3: Русский (AC3, 2 ch, 192 Кбит/с) - Авторский одноголосый ( Ю.Живов)Аудио №4: Английский (AC3, 6 ch, 448 Кбит/с) MediaInfoОбщееУникальный идентификатор : 250259181037416826600408147722332008910 (0xBC462A417D1D7F9FB6652001F01BF1CE)Полное имя : D:6Sedmoe.puteshestvie.Sindbada.1958.x264.BDRip.(AVC).ExKinoRay.mkvФормат : MatroskaРазмер файла : 2,81 ГбайтПродолжительность : 1 ч. 28 м.Общий поток : 4563 Кбит/секНазвание фильма : Sedmoe.puteshestvie.Sindbada.1958.x264.BDRip.(AVC).ExKinoRayДата кодирования : UTC 2014-07-02 13:19:25Программа кодирования : mkvmerge v4.0.0 ('The Stars were mine') сборка от Jun 6 2010 16:18:42Библиотека кодирования : libebml v1.0.0 + libmatroska v1.0.0 ВидеоИдентификатор : 1Формат : AVCФормат/Информация : Advanced Video CodecПрофиль формата : High@L4.1Параметр CABAC формата : ДаПараметр ReFrames формата : 8 кадровИдентификатор кодека : V_MPEG4/ISO/AVCПродолжительность : 1 ч. 28 м.Битрейт : 3248 Кбит/секШирина : 960 пикс.Высота : 576 пикс.Соотношение сторон : 1,667Частота кадров : 23,976 кадр/секЦветовое пространство : YUVПодвыборка цветности : 4:2:0Битовая глубина : 8 битТип развёртки : ПрогрессивнаяБит/(Пиксели*Кадры) : 0.245Размер потока : 1,95 Гбайт (69%)Заголовок : Rip by Enigma-Vladislav71Библиотека кодирования : x264 core 125 r2208 d9d2288Настройки программы : cabac=1 / ref=8 / deblock=1:-2:-2 / analyse=0x3:0x133 / me=umh / subme=11 / psy=1 / psy_rd=1.00:0.00 / mixed_ref=1 / me_range=48 / chroma_me=1 / trellis=2 / 8x8dct=1 / cqm=0 / deadzone=21,11 / fast_pskip=0 / chroma_qp_offset=-2 / threads=3 / lookahead_threads=1 / sliced_threads=0 / nr=0 / decimate=0 / interlaced=0 / bluray_compat=0 / constrained_intra=0 / bframes=8 / b_pyramid=2 / b_adapt=2 / b_bias=0 / direct=3 / weightb=1 / open_gop=0 / weightp=2 / keyint=240 / keyint_min=23 / scenecut=40 / intra_refresh=0 / rc=2pass / mbtree=0 / bitrate=3248 / ratetol=1.0 / qcomp=0.60 / qpmin=10 / qpmax=51 / qpstep=4 / cplxblur=20.0 / qblur=0.5 / ip_ratio=1.40 / pb_ratio=1.30 / aq=1:1.00Язык : English Аудио #1Идентификатор : 2Формат : AC-3Формат/Информация : Audio Coding 3Расширение режима : CM (complete main)Идентификатор кодека : A_AC3Продолжительность : 1 ч. 28 м.Вид битрейта : ПостоянныйБитрейт : 224 Кбит/секКаналы : 2 каналаРасположение каналов : Front: L RЧастота : 48,0 КГцБитовая глубина : 16 битМетод сжатия : С потерямиРазмер потока : 141 Мбайт (5%)Заголовок : ДублированныйЯзык : Russian Аудио #2Идентификатор : 3Формат : AC-3Формат/Информация : Audio Coding 3Расширение режима : CM (complete main)Идентификатор кодека : A_AC3Продолжительность : 1 ч. 28 м.Вид битрейта : ПостоянныйБитрейт : 448 Кбит/секКаналы : 2 каналаРасположение каналов : Front: L RЧастота : 48,0 КГцБитовая глубина : 16 битМетод сжатия : С потерямиРазмер потока : 282 Мбайт (10%)Заголовок : Профессиональный многоголосыйЯзык : Russian Аудио #3Идентификатор : 4Формат : AC-3Формат/Информация : Audio Coding 3Расширение режима : CM (complete main)Идентификатор кодека : A_AC3Продолжительность : 1 ч. 28 м.Вид битрейта : ПостоянныйБитрейт : 192 Кбит/секКаналы : 2 каналаРасположение каналов : Front: L RЧастота : 48,0 КГцБитовая глубина : 16 битМетод сжатия : С потерямиРазмер потока : 121 Мбайт (4%)Заголовок : Авторский одноголосый (Живов)Язык : Russian Аудио #4Идентификатор : 5Формат : AC-3Формат/Информация : Audio Coding 3Расширение режима : CM (complete main)Идентификатор кодека : A_AC3Продолжительность : 1 ч. 28 м.Вид битрейта : ПостоянныйБитрейт : 448 Кбит/секКаналы : 6 каналовРасположение каналов : Front: L C R, Side: L R, LFEЧастота : 48,0 КГцБитовая глубина : 16 битМетод сжатия : С потерямиРазмер потока : 282 Мбайт (10%)Заголовок : АнглийскийЯзык : English Скриншоты

У нас вы можете легко скачать Седьмое путешествие Синдбада через торрент бесплатно в хорошем качестве, оставляйте комментарии и делитесь впечатлениями!



Добавить комментарий

Ваше имя

Комментарий

Все рекомендуемые нами программы доступны на странице Скачать. На сайте КилоТор всегда все новые фильмы, доступные к скачиванию через торрент.

Рекомендуем скачать фильмы через торрент