» » Гоморра (сериал 2014 – ...)

Гоморра (сериал 2014 – ...) cкачать торрент

Оригинальное название: Gomorra - La serie
Производство: Германия, Италия
Режиссер: Стефано Соллима, Клаудио Капеллини, Франческа Коменчини
В ролях: Уолтер Липпа, Сальвио Эспозито, Фортунато Серлино, Марко Д’Амор, Фабио де Каро, Мария Пиа Кальцоне, Массимилиано Росси, Gaetano di Vaio, Marco Palvetti, Ivan Boragine
Жанр: Драма, Криминальные
Мировая премьера: 6 мая 2014
Премьера в России: 29 июля 2014
Возраст: 16+
Продолжительность: 50 мин. / 00:50
Рейтинг "Кинопоиска":

Скачать Гоморра (сериал 2014 – ...) через торрент

Сиды Качество Перевод Размер Видео Аудио
Скачать Загрузка... BDRip1080 профессиональный (многоголосый , закадровый) - 4,56 Гб ~ 2000 kbps, 1280x688 AC3, 2 ch, 192 kbps
Скачать Загрузка... BDRip1080 Профессиональный многоголосый 15,47 Гб 3500 Кбит/с, 1280x692, 25.000 кадр/с Аудио #1: Русский (AC3, 2 ch, 192 Кбит/с) / Профессиональный многоголосый (Первый канал)Аудио #2: Итальянский (AC3, 6 ch, 384 Кбит/с) MIОбщееУникальный идентификатор : 184131206958020252864798361340683803823 (0x8A8661699AFF811BA9CF491F2CDCDCAF)Полное имя : D:В планахGomorra.(1.sezon).2014.x264.HDTVRip.720p_MediaClubGomorra.(1.sezon.01.seriya.iz.12).2014.x264.HDTVRip.720p_MediaClub.mkvФормат : MatroskaВерсия формата : Version 4 / Version 2Размер файла : 1,42 ГбайтПродолжительность : 51 м.Общий поток : 3946 Кбит/секДата кодирования : UTC 2014-07-31 07:16:47Программа кодирования : mkvmerge v6.9.1 ('Blue Panther') 64bit built on Apr 18 2014 18:23:38Библиотека кодирования : libebml v1.3.0 + libmatroska v1.4.1 ВидеоИдентификатор : 1Формат : AVCФормат/Информация : Advanced Video CodecПрофиль формата : High@L3.1Параметр CABAC формата : ДаПараметр ReFrames формата : 4 кадраИдентификатор кодека : V_MPEG4/ISO/AVCПродолжительность : 51 м.Битрейт : 3291 Кбит/секШирина : 1280 пикселейВысота : 692 пикселяСоотношение сторон : 1,85:1Режим частоты кадров : ПостоянныйЧастота кадров : 25,000 кадров/секЦветовое пространство : YUVСубдискретизация насыщенности : 4:2:0Битовая глубина : 8 битТип развёртки : ПрогрессивнаяБит/(Пиксели*Кадры) : 0.149Размер потока : 1,18 Гбайт (83%)Библиотека кодирования : x264 core 133 r2334 a3ac64bНастройки программы : cabac=1 / ref=4 / deblock=1:0:0 / analyse=0x3:0x113 / me=hex / subme=7 / psy=1 / psy_rd=1.00:0.00 / mixed_ref=1 / me_range=16 / chroma_me=1 / trellis=1 / 8x8dct=1 / cqm=0 / deadzone=21,11 / fast_pskip=1 / chroma_qp_offset=-2 / threads=12 / lookahead_threads=2 / sliced_threads=0 / nr=0 / decimate=1 / interlaced=0 / bluray_compat=0 / constrained_intra=0 / bframes=3 / b_pyramid=2 / b_adapt=1 / b_bias=0 / direct=1 / weightb=1 / open_gop=0 / weightp=2 / keyint=250 / keyint_min=25 / scenecut=40 / intra_refresh=0 / rc_lookahead=40 / rc=crf / mbtree=1 / crf=18.0 / qcomp=0.60 / qpmin=0 / qpmax=69 / qpstep=4 / ip_ratio=1.40 / aq=1:1.00Язык : ItalianDefault : ДаForced : Нет Аудио #1Идентификатор : 2Формат : AC-3Формат/Информация : Audio Coding 3Расширение режима : CM (complete main)Параметр Endianness формата : BigИдентификатор кодека : A_AC3Продолжительность : 51 м.Вид битрейта : ПостоянныйБитрейт : 192 Кбит/секКаналы : 2 каналаРасположение каналов : Front: L RЧастота : 48,0 КГцБитовая глубина : 16 битМетод сжатия : С потерямиРазмер потока : 70,6 Мбайт (5%)Язык : RussianDefault : ДаForced : Нет Аудио #2Идентификатор : 3Формат : AC-3Формат/Информация : Audio Coding 3Расширение режима : CM (complete main)Параметр Endianness формата : BigИдентификатор кодека : A_AC3Продолжительность : 51 м.Вид битрейта : ПостоянныйБитрейт : 384 Кбит/секКаналы : 6 каналовРасположение каналов : Front: L C R, Side: L R, LFEЧастота : 48,0 КГцБитовая глубина : 16 битМетод сжатия : С потерямиЗадержка видео : 308 мс.Размер потока : 141 Мбайт (10%)Язык : ItalianDefault : НетForced : Нет Скриншоты
Скачать Загрузка... TVRip профессиональный (многоголосый , закадровый) - 3,73 Гб ~ 1300 kbps, 720x384, 25 fps mp3, 48 KHz, 2 ch, 128 kbps
Скачать Загрузка... TVRip Профессиональный многоголосый 7,38 Гб 1500 Кбит/с, 720x384 Аудио: Русский (AC3, 2 ch, 192 Кбит/с) / Профессиональный многоголосый (Первый канал)

У нас вы можете легко скачать Гоморра (сериал 2014 – ...) через торрент бесплатно в хорошем качестве, оставляйте комментарии и делитесь впечатлениями!



Добавить комментарий

Ваше имя

Комментарий

Все рекомендуемые нами программы доступны на странице Скачать. На сайте КилоТор всегда все новые фильмы, доступные к скачиванию через торрент.

Рекомендуем скачать фильмы через торрент