» » Чемпион

Чемпион cкачать торрент

Оригинальное название: Champion
Производство: США
Режиссер: Марк Робсон
В ролях: Кирк Дуглас, Мэрилин Максвелл, Артур Кеннеди, Пол Стюарт, Рут Роман, Лола Олбрайт, Луис Ван Рутен, Гарри Шэннон, Джон Дахейм, Ральф Санфорд
Жанр: Мелодрамы, Драма, Нуар, Спорт
Мировая премьера: 1 января 1970
Возраст: 0+
Продолжительность: 99 мин. / 01:39
Рейтинг "Кинопоиска":

Скачать Чемпион через торрент

Сиды Качество Перевод Размер Видео Аудио
Скачать Загрузка... WEB-DL Профессиональный двухголосый 2,40 Гб MPEG-4 AVC, 2652 Кбит/с, 784x576 Аудио №1: Русский (AC3, 2 ch, 192 Кбит/с) - Профессиональный двухголосый (Film Prestige)Аудио №2: Русский (AC3, 2 ch, 192 Кбит/с) - Профессиональный двухголосый (New Dream Media)Аудио №3: Английский (AC3, 1 ch, 192 Кбит/с) MediaInfoОбщееУникальный идентификатор : 225769857023998666663370518356128703181 (0xA9D9B15C8980B1E29873BFABC60C22CD)Полное имя : D:7Champion.1949.x264.BDRip.(AVC).ExKinoRay.mkvФормат : MatroskaРазмер файла : 2,24 ГбайтПродолжительность : 1 ч. 39 м.Общий поток : 3229 Кбит/секНазвание фильма : Champion.1949.x264.BDRip.(AVC).ExKinoRayДата кодирования : UTC 2014-04-21 18:39:15Программа кодирования : mkvmerge v4.0.0 ('The Stars were mine') сборка от Jun 6 2010 16:18:42Библиотека кодирования : libebml v1.0.0 + libmatroska v1.0.0 ВидеоИдентификатор : 1Формат : AVCФормат/Информация : Advanced Video CodecПрофиль формата : High@L4.1Параметр CABAC формата : ДаПараметр ReFrames формата : 8 кадровИдентификатор кодека : V_MPEG4/ISO/AVCПродолжительность : 1 ч. 39 м.Битрейт : 2652 Кбит/секШирина : 784 пикс.Высота : 576 пикс.Соотношение сторон : 4:3Частота кадров : 23,976 кадр/секЦветовое пространство : YUVПодвыборка цветности : 4:2:0Битовая глубина : 8 битТип развёртки : ПрогрессивнаяБит/(Пиксели*Кадры) : 0.245Размер потока : 1,79 Гбайт (80%)Заголовок : Rip by Enigma-Vladislav71Библиотека кодирования : x264 core 125 r2208 d9d2288Настройки программы : cabac=1 / ref=8 / deblock=1:-2:-2 / analyse=0x3:0x133 / me=umh / subme=11 / psy=1 / psy_rd=1.00:0.00 / mixed_ref=1 / me_range=48 / chroma_me=1 / trellis=2 / 8x8dct=1 / cqm=0 / deadzone=21,11 / fast_pskip=0 / chroma_qp_offset=-2 / threads=3 / lookahead_threads=1 / sliced_threads=0 / nr=0 / decimate=0 / interlaced=0 / bluray_compat=0 / constrained_intra=0 / bframes=8 / b_pyramid=2 / b_adapt=2 / b_bias=0 / direct=3 / weightb=1 / open_gop=0 / weightp=2 / keyint=240 / keyint_min=23 / scenecut=40 / intra_refresh=0 / rc=2pass / mbtree=0 / bitrate=2652 / ratetol=1.0 / qcomp=0.60 / qpmin=10 / qpmax=51 / qpstep=4 / cplxblur=20.0 / qblur=0.5 / ip_ratio=1.40 / pb_ratio=1.30 / aq=1:1.00Язык : English Аудио #1Идентификатор : 2Формат : AC-3Формат/Информация : Audio Coding 3Расширение режима : CM (complete main)Идентификатор кодека : A_AC3Продолжительность : 1 ч. 39 м.Вид битрейта : ПостоянныйБитрейт : 192 Кбит/секКаналы : 2 каналаРасположение каналов : Front: L RЧастота : 48,0 КГцБитовая глубина : 16 битМетод сжатия : С потерямиРазмер потока : 136 Мбайт (6%)Заголовок : Профессиональный двухголосый (Film Prestige)Язык : Russian Аудио #2Идентификатор : 3Формат : AC-3Формат/Информация : Audio Coding 3Расширение режима : CM (complete main)Идентификатор кодека : A_AC3Продолжительность : 1 ч. 39 м.Вид битрейта : ПостоянныйБитрейт : 192 Кбит/секКаналы : 2 каналаРасположение каналов : Front: L RЧастота : 48,0 КГцБитовая глубина : 16 битМетод сжатия : С потерямиРазмер потока : 136 Мбайт (6%)Заголовок : Профессиональный двухголосый (New Dream Media)Язык : Russian Аудио #3Идентификатор : 4Формат : AC-3Формат/Информация : Audio Coding 3Расширение режима : CM (complete main)Идентификатор кодека : A_AC3Продолжительность : 1 ч. 39 м.Вид битрейта : ПостоянныйБитрейт : 192 Кбит/секКаналы : 1 каналРасположение каналов : Front: CЧастота : 48,0 КГцБитовая глубина : 16 битМетод сжатия : С потерямиРазмер потока : 136 Мбайт (6%)Заголовок : АнглийскийЯзык : English Меню00:00:00.000 : en:Chapter 0100:12:40.675 : en:Chapter 0200:23:04.132 : en:Chapter 0300:37:47.390 : en:Chapter 0400:48:59.603 : en:Chapter 0500:59:37.823 : en:Chapter 0601:09:17.695 : en:Chapter 0701:22:04.419 : en:Chapter 0801:39:09.360 : en:Chapter 09 Скриншоты

У нас вы можете легко скачать Чемпион через торрент бесплатно в хорошем качестве, оставляйте комментарии и делитесь впечатлениями!



Добавить комментарий

Ваше имя

Комментарий

Все рекомендуемые нами программы доступны на странице Скачать. На сайте КилоТор всегда все новые фильмы, доступные к скачиванию через торрент.

Рекомендуем скачать фильмы через торрент