» » Подглядывающий

Подглядывающий cкачать торрент

Оригинальное название: Peeping Tom
Производство: Великобритания
Режиссер: Майкл Пауэлл
В ролях: Карлхайнц Бём, Мойра Ширер, Анна Мэсси, Максин Одли, Бренда Брюс, Майлз Маллесон, Эзмонд Найт, Майкл Гудлифф, Мартин Миллер, Джек Уотсон
Жанр: Ужасы, Триллеры, Драма, Криминальные
Мировая премьера: 1 января 1970
Возраст: 18+
Продолжительность: 101 мин. / 01:41
Рейтинг "Кинопоиска":

Скачать Подглядывающий через торрент

Сиды Качество Перевод Размер Видео Аудио
Скачать Загрузка... WEB-DL Профессиональный многоголосый, авторский 2,12 Гб MPEG-4 AVC, 2200 Кбит/с, 952x576 Аудио №1: Русский (AC3, 2 ch, 192 Кбит/с) - Профессиональный многоголосый (5 канал)Аудио №2: Русский (AC3, 2 ch, 192 Кбит/с) - Авторский одноголосый (Кузнецов)Аудио №3: Английский (AC3, 2 ch, 192 Кбит/с) MediaInfoОбщееУникальный идентификатор : 199144372003290894123589692884523486499 (0x95D1CF99174A2D44979EDD3AD6650D23)Полное имя : D:фильмыPodgljadyvajushij.1960.x264.BDRip.(AVC).ExKinoRay.mkvФормат : MatroskaРазмер файла : 1,97 ГбайтПродолжительность : 1 ч. 41 м.Общий поток : 2778 Кбит/секНазвание фильма : Podgljadyvajushij.1960.x264.BDRip.(AVC).ExKinoRayДата кодирования : UTC 2014-09-01 15:23:48Программа кодирования : mkvmerge v4.0.0 ('The Stars were mine') сборка от Jun 6 2010 16:18:42Библиотека кодирования : libebml v1.0.0 + libmatroska v1.0.0 ВидеоИдентификатор : 1Формат : AVCФормат/Информация : Advanced Video CodecПрофиль формата : High@L4.1Параметр CABAC формата : ДаПараметр ReFrames формата : 8 кадровИдентификатор кодека : V_MPEG4/ISO/AVCПродолжительность : 1 ч. 41 м.Битрейт : 2200 Кбит/секШирина : 952 пикс.Высота : 576 пикс.Соотношение сторон : 1,653Частота кадров : 24,000 кадр/секЦветовое пространство : YUVПодвыборка цветности : 4:2:0Битовая глубина : 8 битТип развёртки : ПрогрессивнаяБит/(Пиксели*Кадры) : 0.167Размер потока : 1,52 Гбайт (77%)Заголовок : Rip by Enigma-Vladislav71Библиотека кодирования : x264 core 125 r2208 d9d2288Настройки программы : cabac=1 / ref=8 / deblock=1:-2:-2 / analyse=0x3:0x133 / me=umh / subme=11 / psy=1 / psy_rd=1.00:0.00 / mixed_ref=1 / me_range=48 / chroma_me=1 / trellis=2 / 8x8dct=1 / cqm=0 / deadzone=21,11 / fast_pskip=0 / chroma_qp_offset=-2 / threads=3 / lookahead_threads=1 / sliced_threads=0 / nr=0 / decimate=0 / interlaced=0 / bluray_compat=0 / constrained_intra=0 / bframes=8 / b_pyramid=2 / b_adapt=2 / b_bias=0 / direct=3 / weightb=1 / open_gop=0 / weightp=2 / keyint=240 / keyint_min=23 / scenecut=40 / intra_refresh=0 / rc=2pass / mbtree=0 / bitrate=2200 / ratetol=1.0 / qcomp=0.60 / qpmin=10 / qpmax=51 / qpstep=4 / cplxblur=20.0 / qblur=0.5 / ip_ratio=1.40 / pb_ratio=1.30 / aq=1:1.00Язык : English Аудио #1Идентификатор : 2Формат : AC-3Формат/Информация : Audio Coding 3Расширение режима : CM (complete main)Идентификатор кодека : A_AC3Продолжительность : 1 ч. 41 м.Вид битрейта : ПостоянныйБитрейт : 192 Кбит/секКаналы : 2 каналаРасположение каналов : Front: L RЧастота : 48,0 КГцБитовая глубина : 16 битМетод сжатия : С потерямиРазмер потока : 140 Мбайт (7%)Заголовок : Профессиональный многоголосый (5 канал)Язык : Russian Аудио #2Идентификатор : 3Формат : AC-3Формат/Информация : Audio Coding 3Расширение режима : CM (complete main)Идентификатор кодека : A_AC3Продолжительность : 1 ч. 41 м.Вид битрейта : ПостоянныйБитрейт : 192 Кбит/секКаналы : 2 каналаРасположение каналов : Front: L RЧастота : 48,0 КГцБитовая глубина : 16 битМетод сжатия : С потерямиРазмер потока : 140 Мбайт (7%)Заголовок : Авторский одноголосый (Кузнецов)Язык : Russian Аудио #3Идентификатор : 4Формат : AC-3Формат/Информация : Audio Coding 3Расширение режима : CM (complete main)Идентификатор кодека : A_AC3Продолжительность : 1 ч. 41 м.Вид битрейта : ПостоянныйБитрейт : 192 Кбит/секКаналы : 2 каналаРасположение каналов : Front: L RЧастота : 48,0 КГцБитовая глубина : 16 битМетод сжатия : С потерямиРазмер потока : 140 Мбайт (7%)Заголовок : АнглийскийЯзык : English Текст #1Идентификатор : 5Формат : UTF-8Идентификатор кодека : S_TEXT/UTF8Идентификатор кодека/Информация : UTF-8 Plain TextЯзык : Russian Текст #2Идентификатор : 6Формат : UTF-8Идентификатор кодека : S_TEXT/UTF8Идентификатор кодека/Информация : UTF-8 Plain TextЯзык : English Скриншоты

У нас вы можете легко скачать Подглядывающий через торрент бесплатно в хорошем качестве, оставляйте комментарии и делитесь впечатлениями!



Добавить комментарий

Ваше имя

Комментарий

Все рекомендуемые нами программы доступны на странице Скачать. На сайте КилоТор всегда все новые фильмы, доступные к скачиванию через торрент.

Рекомендуем скачать фильмы через торрент