» » Маска Сатаны

Маска Сатаны cкачать торрент

Оригинальное название: La maschera del demonio
Производство: Италия
Режиссер: Марио Бава
В ролях: Барбара Стил, Джон Ричардсон, Андреа Кекки, Иво Гаррани, Артуро Доминичи, Энрико Оливьери, Антонио Пьерфедеричи, Тино Бьянчи, Клара Бинди, Марио Пассанте
Жанр: Ужасы
Мировая премьера: 1 января 1970
Возраст: 16+
Продолжительность: 87 мин. / 01:27
Рейтинг "Кинопоиска":

Скачать Маска Сатаны через торрент

Сиды Качество Перевод Размер Видео Аудио
Скачать Загрузка... BDRemux Авторский (одноголосый, закадровый) Андрей Васильев 17,59 Гб 25942 kbps / 1080p / 23,976 fps / 16:9 / High Profile 4.1 English / DTS-HD Master Audio / 2.0 / 48 kHz / 670 kbps / 16-bit (DTS Core: 2.0 / 48 kHz / 510 kbps / 16-bit)
Скачать Загрузка... WEB-DL Профессиональный двухголосый, авторский 2,53 Гб MPEG-4 AVC, 3302 Кбит/с, 976x576 Аудио №1: Русский (AC3, 2 ch, 192 Кбит/с) - Профессиональный двухголосыйАудио №2: Русский (AC3, 2 ch, 192 Кбит/с) - Авторский одноголосый (Васильев)Аудио №3: Английский (AC3, 2 ch, 192 Кбит/с) MediaInfoОбщееУникальный идентификатор : 204419925422439489505551132833155149169 (0x99C9D8769F91BB44A0BA952C83286D71)Полное имя : D:6Maska.Satany.1960.x264.BDRip.(AVC).ExKinoRay.mkvФормат : MatroskaРазмер файла : 2,36 ГбайтПродолжительность : 1 ч. 27 м.Общий поток : 3879 Кбит/секНазвание фильма : Maska.Satany.1960.x264.BDRip.(AVC).ExKinoRayДата кодирования : UTC 2014-08-31 10:03:22Программа кодирования : mkvmerge v4.0.0 ('The Stars were mine') сборка от Jun 6 2010 16:18:42Библиотека кодирования : libebml v1.0.0 + libmatroska v1.0.0 ВидеоИдентификатор : 1Формат : AVCФормат/Информация : Advanced Video CodecПрофиль формата : High@L4.1Параметр CABAC формата : ДаПараметр ReFrames формата : 8 кадровПараметры GOP формата : M=9, N=49Идентификатор кодека : V_MPEG4/ISO/AVCПродолжительность : 1 ч. 27 м.Битрейт : 3302 Кбит/секШирина : 976 пикс.Высота : 576 пикс.Соотношение сторон : 1,694Частота кадров : 23,976 кадр/секЦветовое пространство : YUVПодвыборка цветности : 4:2:0Битовая глубина : 8 битТип развёртки : ПрогрессивнаяБит/(Пиксели*Кадры) : 0.245Размер потока : 1,96 Гбайт (83%)Заголовок : Rip by Enigma-Vladislav71Библиотека кодирования : x264 core 125 r2208 d9d2288Настройки программы : cabac=1 / ref=8 / deblock=1:-2:-2 / analyse=0x3:0x133 / me=umh / subme=11 / psy=1 / psy_rd=1.00:0.00 / mixed_ref=1 / me_range=48 / chroma_me=1 / trellis=2 / 8x8dct=1 / cqm=0 / deadzone=21,11 / fast_pskip=0 / chroma_qp_offset=-2 / threads=3 / lookahead_threads=1 / sliced_threads=0 / nr=0 / decimate=0 / interlaced=0 / bluray_compat=0 / constrained_intra=0 / bframes=8 / b_pyramid=2 / b_adapt=2 / b_bias=0 / direct=3 / weightb=1 / open_gop=0 / weightp=2 / keyint=240 / keyint_min=23 / scenecut=40 / intra_refresh=0 / rc=2pass / mbtree=0 / bitrate=3302 / ratetol=1.0 / qcomp=0.60 / qpmin=10 / qpmax=51 / qpstep=4 / cplxblur=20.0 / qblur=0.5 / ip_ratio=1.40 / pb_ratio=1.30 / aq=1:1.00Язык : English Аудио #1Идентификатор : 2Формат : AC-3Формат/Информация : Audio Coding 3Расширение режима : CM (complete main)Идентификатор кодека : A_AC3Продолжительность : 1 ч. 27 м.Вид битрейта : ПостоянныйБитрейт : 192 Кбит/секКаналы : 2 каналаРасположение каналов : Front: L RЧастота : 48,0 КГцБитовая глубина : 16 битМетод сжатия : С потерямиРазмер потока : 120 Мбайт (5%)Заголовок : Профессиональный двухголосыйЯзык : Russian Аудио #2Идентификатор : 3Формат : AC-3Формат/Информация : Audio Coding 3Расширение режима : CM (complete main)Идентификатор кодека : A_AC3Продолжительность : 1 ч. 27 м.Вид битрейта : ПостоянныйБитрейт : 192 Кбит/секКаналы : 2 каналаРасположение каналов : Front: L RЧастота : 48,0 КГцБитовая глубина : 16 битМетод сжатия : С потерямиРазмер потока : 120 Мбайт (5%)Заголовок : Авторский одноголосый (Васильев)Язык : Russian Аудио #3Идентификатор : 4Формат : AC-3Формат/Информация : Audio Coding 3Расширение режима : CM (complete main)Идентификатор кодека : A_AC3Продолжительность : 1 ч. 27 м.Вид битрейта : ПостоянныйБитрейт : 192 Кбит/секКаналы : 2 каналаРасположение каналов : Front: L RЧастота : 48,0 КГцБитовая глубина : 16 битМетод сжатия : С потерямиРазмер потока : 120 Мбайт (5%)Заголовок : английскийЯзык : English Скриншоты

У нас вы можете легко скачать Маска Сатаны через торрент бесплатно в хорошем качестве, оставляйте комментарии и делитесь впечатлениями!



Добавить комментарий

Ваше имя

Комментарий

Все рекомендуемые нами программы доступны на странице Скачать. На сайте КилоТор всегда все новые фильмы, доступные к скачиванию через торрент.

Рекомендуем скачать фильмы через торрент